<?xml version="1.0" encoding="UTF-8" standalone="no"?>
<!DOCTYPE svg  PUBLIC '-//W3C//DTD SVG 1.1//EN'  'http://www.w3.org/Graphics/SVG/1.1/DTD/svg11.dtd'>
<svg version="1.1" xmlns="http://www.w3.org/2000/svg">
<defs>
<font id="SFUIDisplay-Regular" horiz-adv-x="1239">
<font-face font-weight="400" x-height="1078" underline-thickness="120" cap-height="1443" underline-position="-490" ascent="1638" units-per-em="2048" panose-1="0 0 5 0 0 0 0 0 0 0" bbox="-133 -469.053 1847 1905" font-family="SF UI Display" unicode-range="U+0020-00FE" descent="-410"/>
<missing-glyph/>
<glyph horiz-adv-x="490" unicode=" " glyph-name="space"/>
<glyph horiz-adv-x="546" d="M183 1443h180l-12 -964h-156zM273 -10q-48 0 -81 33t-33 81q0 49 33 81.5t81 32.5q49 0 81.5 -32.5t32.5 -81.5q0 -48 -32.5 -81t-81.5 -33z" unicode="!" glyph-name="exclam"/>
<glyph horiz-adv-x="807" d="M295 934h-160v509h160v-509zM672 934h-160v509h160v-509z" unicode='&quot;' glyph-name="quotedbl"/>
<glyph horiz-adv-x="1206" d="M1179 901h-233l-71 -344h219l-28 -144h-220l-84 -413h-143l84 413h-308l-84 -413h-142l83 413h-216l28 144h219l69 344h-205l29 143h205l83 399h142l-80 -399h306l83 399h143l-82 -399h231zM494 903l-71 -349h310l71 349h-310z" unicode="#" glyph-name="numbersign"/>
<glyph d="M688 -137h-134v134q-203 15 -325.5 123t-123.5 275h171q8 -100 81 -164t197 -79v520l-80 22q-161 42 -247.5 138t-86.5 235q0 164 111 269t303 124v140h134v-139q187 -16 301.5 -123t119.5 -269h-170q-3 93 -71.5 158.5t-179.5 78.5v-489l85 -21q184 -49 272.5 -143 t88.5 -245q0 -177 -117.5 -285t-328.5 -125v-135zM961 394q0 99 -66 160t-207 91v-496q130 7 201.5 71t71.5 174zM312 1077q0 -180 242 -231v460q-105 -6 -173.5 -70.5t-68.5 -158.5z" unicode="$" glyph-name="dollar"/>
<glyph horiz-adv-x="1498" d="M655 1102q0 -164 -82.5 -262t-219.5 -98t-220 98.5t-83 261.5t83 261t220 98t219.5 -98t82.5 -261zM353 864q66 0 104 64t38 174q0 111 -37.5 173.5t-104.5 62.5q-66 0 -104.5 -63.5t-38.5 -172.5q0 -110 38.5 -174t104.5 -64zM309 0h-174l1056 1443h172zM1448 344 q0 -164 -82.5 -262t-219.5 -98t-220 98.5t-83 261.5t83 261t220 98t219.5 -98t82.5 -261zM1146 106q66 0 104 64t38 174q0 111 -37.5 173.5t-104.5 62.5q-66 0 -104.5 -63.5t-38.5 -172.5q0 -110 38.5 -174t104.5 -64z" unicode="%" glyph-name="percent"/>
<glyph horiz-adv-x="1370" d="M1161 0l-134 145q-91 -81 -211.5 -125t-249.5 -44q-214 0 -349 114t-135 294q0 250 283 400q52 27 55 28q-97 103 -138 179.5t-41 155.5q0 137 104 228.5t260 91.5q159 0 262 -91t103 -231q0 -110 -72 -196.5t-237 -173.5l357 -385q69 129 69 384v43h166v-44 q0 -317 -119 -504l253 -269h-226zM468 679q-112 -68 -160 -134t-48 -149q0 -121 89 -195.5t233 -74.5q97 0 189.5 36.5t150.5 97.5l-406 445q-29 -13 -48 -26zM565 876q129 66 183 126t54 137q0 83 -54.5 135t-141.5 52q-85 0 -140 -53t-55 -136q0 -59 35 -118t119 -143z " unicode="&amp;" glyph-name="ampersand"/>
<glyph horiz-adv-x="430" d="M295 934h-160v509h160v-509z" unicode="&apos;" glyph-name="quotesingle"/>
<glyph horiz-adv-x="636" d="M598 -277h-153q-38 47 -71.5 100.5t-71.5 135.5t-64.5 172.5t-44.5 212.5t-18 255t18 250.5t43 198.5t66.5 161t73.5 126.5t79 106.5h146q-37 -44 -75.5 -112t-80 -171.5t-67.5 -250t-26 -307.5q0 -110 11 -210.5t33.5 -187.5t43 -151t55 -135t52 -103.5t51.5 -90.5z" unicode="(" glyph-name="parenleft"/>
<glyph horiz-adv-x="636" d="M37 -277q34 58 51.5 90.5t52 103.5t55 135t43 151t33.5 187.5t11 210.5q0 161 -26 308t-67 250t-79 171.5t-76 111.5h146q47 -60 79 -106.5t73.5 -126.5t66.5 -161t43 -198.5t18 -250.5q0 -537 -271 -876h-153z" unicode=")" glyph-name="parenright"/>
<glyph horiz-adv-x="988" d="M790 881l-245 160l16 -291h-134l16 292l-245 -161l-65 116l259 132l-259 131l65 118l245 -163l-16 294h134l-16 -294l245 163l65 -118l-258 -131l258 -132z" unicode="*" glyph-name="asterisk"/>
<glyph d="M700 488v-458h-162v458h-427v162h427v447h162v-447h427v-162h-427z" unicode="+" glyph-name="plus"/>
<glyph horiz-adv-x="520" d="M231 -257h-135l100 459h185z" unicode="," glyph-name="comma"/>
<glyph horiz-adv-x="520" d="M260 -10q-48 0 -81 33t-33 81q0 49 33 81.5t81 32.5q49 0 81.5 -32.5t32.5 -81.5q0 -48 -32.5 -81t-81.5 -33z" unicode="." glyph-name="period"/>
<glyph horiz-adv-x="590" d="M146 -329h-146l441 1773h149z" unicode="/" glyph-name="slash"/>
<glyph horiz-adv-x="1242" d="M622 -24q-251 0 -391.5 200.5t-140.5 545.5q0 342 141.5 543.5t390.5 201.5t389.5 -200.5t140.5 -543.5q0 -345 -140 -546t-390 -201zM622 133q167 0 258 157.5t91 431.5q0 270 -92 428.5t-257 158.5t-258 -159t-93 -427q0 -274 92 -432t259 -158z" unicode="0" glyph-name="zero"/>
<glyph horiz-adv-x="908" d="M485 0v1252h-4l-382 -275v190l384 276h176v-1443h-174z" unicode="1" glyph-name="one"/>
<glyph horiz-adv-x="1159" d="M108 1027q0 189 136 314.5t340 125.5q193 0 327 -115t134 -281q0 -120 -66 -231t-248 -299l-365 -377v-4h703v-160h-952v124l508 535q145 153 192.5 232t47.5 169q0 104 -83.5 177t-202.5 73q-127 0 -212 -81t-85 -202v-1h-174v1z" unicode="2" glyph-name="two"/>
<glyph horiz-adv-x="1212" d="M411 666v152h173q124 0 203 71.5t79 181.5t-73 175t-207 65q-124 0 -202 -66t-90 -180h-173q15 184 142.5 293t330.5 109q195 0 324 -105t129 -267q0 -135 -80 -227t-216 -116v-4q164 -10 261 -104.5t97 -246.5q0 -121 -68 -218t-184 -150t-257 -53q-224 0 -361 112 t-147 294h173q12 -113 101 -181.5t232 -68.5t235.5 73t92.5 186q0 127 -89.5 201t-244.5 74h-181z" unicode="3" glyph-name="three"/>
<glyph d="M803 0v300h-725v163q93 173 236.5 395t396.5 585h266v-985h204v-158h-204v-300h-174zM256 462v-4h547v835h-3q-379 -541 -544 -831z" unicode="4" glyph-name="four"/>
<glyph horiz-adv-x="1198" d="M613 -24q-207 0 -345.5 117t-149.5 301h177q12 -115 101 -187.5t219 -72.5q147 0 239.5 92t92.5 238t-92.5 239.5t-236.5 93.5q-101 0 -183 -43t-126 -119h-169l79 808h826v-160h-678l-44 -470h4q49 65 134.5 102t188.5 37q208 0 342.5 -136.5t134.5 -346.5 q0 -217 -144 -355t-370 -138z" unicode="5" glyph-name="five"/>
<glyph horiz-adv-x="1226" d="M639 -25q-162 0 -286 84.5t-191 240.5q-71 164 -71 397q0 365 147.5 568t412.5 203q184 0 314 -102t165 -272h-183q-29 98 -110 156.5t-188 58.5q-181 0 -280 -155t-104 -443h3q49 106 159 170t244 64q206 0 342.5 -136t136.5 -341q0 -214 -144.5 -353.5t-366.5 -139.5z M637 135q138 0 234 95t96 232q0 142 -92 233.5t-235 91.5t-237.5 -91t-94.5 -229q0 -139 95.5 -235.5t233.5 -96.5z" unicode="6" glyph-name="six"/>
<glyph horiz-adv-x="1120" d="M200 0l653 1279v4h-777v160h955v-167l-642 -1276h-189z" unicode="7" glyph-name="seven"/>
<glyph horiz-adv-x="1227" d="M613 -24q-229 0 -376 116.5t-147 297.5q0 135 85 237t225 134v4q-117 36 -185 122.5t-68 200.5q0 163 132.5 271t333.5 108q202 0 333.5 -107.5t131.5 -272.5q0 -113 -67 -199t-185 -123v-4q140 -33 225.5 -135t85.5 -236q0 -181 -147 -297.5t-377 -116.5zM613 133 q149 0 244.5 76t95.5 194q0 119 -95.5 195t-244.5 76t-244.5 -76.5t-95.5 -194.5t96 -194t244 -76zM613 832q126 0 206.5 67t80.5 172q0 106 -80 173.5t-207 67.5t-207 -67.5t-80 -173.5q0 -105 80 -172t207 -67z" unicode="8" glyph-name="eight"/>
<glyph horiz-adv-x="1226" d="M576 -24q-184 0 -315 102t-164 272h183q29 -98 110 -157.5t188 -59.5q180 0 279.5 156.5t103.5 444.5h-1h-2q-46 -107 -155.5 -171.5t-247.5 -64.5q-206 0 -342.5 136t-136.5 341q0 214 144.5 353.5t366.5 139.5q163 0 287 -84.5t190 -239.5q71 -164 71 -398 q0 -365 -147 -567.5t-412 -202.5zM586 656q143 0 238 91t95 229q0 139 -95.5 234.5t-234.5 95.5t-235 -94.5t-96 -230.5q0 -141 93 -233t235 -92z" unicode="9" glyph-name="nine"/>
<glyph horiz-adv-x="520" d="M260 -10q-48 0 -81 33t-33 81q0 49 33 81.5t81 32.5q49 0 81.5 -32.5t32.5 -81.5q0 -48 -32.5 -81t-81.5 -33zM260 726q-48 0 -81 33t-33 81q0 49 33 81.5t81 32.5q49 0 81.5 -32.5t32.5 -81.5q0 -48 -32.5 -81t-81.5 -33z" unicode=":" glyph-name="colon"/>
<glyph horiz-adv-x="520" d="M260 726q-48 0 -81 33t-33 81q0 49 33 81.5t81 32.5q49 0 81.5 -32.5t32.5 -81.5q0 -48 -32.5 -81t-81.5 -33zM197 -257h-135l98 459h187z" unicode=";" glyph-name="semicolon"/>
<glyph d="M1059 980l-707 -400v-9l707 -378v-186l-879 491v142l879 526v-186z" unicode="&lt;" glyph-name="less"/>
<glyph d="M1108 301h-977v154h977v-154zM1108 684h-977v154h977v-154z" unicode="=" glyph-name="equal"/>
<glyph d="M180 981v186l879 -526v-142l-879 -491v186l707 378v9z" unicode="&gt;" glyph-name="greater"/>
<glyph horiz-adv-x="1002" d="M56 1066q9 171 121.5 279.5t314.5 108.5q187 0 305.5 -103t118.5 -259q0 -219 -209 -345q-94 -56 -128.5 -106t-34.5 -130v-65h-175v92q-1 98 47.5 170t152.5 134q88 54 124.5 108t36.5 133q0 94 -67.5 154.5t-177.5 60.5q-113 0 -181.5 -62t-76.5 -170h-171zM457 -10 q-48 0 -81 33t-33 81q0 49 33 81.5t81 32.5q49 0 81.5 -32.5t32.5 -81.5q0 -48 -32.5 -81t-81.5 -33z" unicode="?" glyph-name="question"/>
<glyph horiz-adv-x="1791" d="M889 875q-100 0 -156.5 -74t-56.5 -205q0 -130 56.5 -205t154.5 -75q103 0 164 76t61 204t-60.5 203.5t-162.5 75.5zM924 1435q173 0 321.5 -53.5t254.5 -149t166 -233t60 -300.5q0 -242 -101 -387.5t-275 -145.5q-87 0 -151 47t-73 121h-8q-32 -76 -98.5 -117.5 t-155.5 -41.5q-156 0 -252 117t-96 308q0 182 97 297.5t251 115.5q80 0 147 -38.5t95 -102.5h8v122h151v-587q0 -51 28.5 -81t84.5 -30q92 0 149.5 107.5t57.5 297.5q0 179 -85 317.5t-238.5 214.5t-350.5 76q-192 0 -345.5 -90.5t-240 -254t-86.5 -369.5q0 -166 53.5 -300 t148 -221.5t223 -134t279.5 -46.5q101 0 194 13t141 35v-126q-139 -49 -337 -49q-184 0 -338 55.5t-266.5 159.5t-175.5 263t-63 357q0 185 61 340.5t169.5 264t262 169t333.5 60.5z" unicode="@" glyph-name="at"/>
<glyph horiz-adv-x="1292" d="M1078 0l-145 413h-574l-145 -413h-189l532 1443h178l532 -1443h-189zM643 1224l-231 -658h468l-231 658h-6z" unicode="A" glyph-name="A"/>
<glyph horiz-adv-x="1256" d="M703 0h-563v1443h565q185 0 299.5 -99t114.5 -261q0 -113 -72.5 -204.5t-176.5 -110.5v-8q147 -19 234.5 -115t87.5 -240q0 -191 -129.5 -298t-359.5 -107zM320 1284v-463h288q160 0 244.5 62t84.5 179q0 107 -71 164.5t-202 57.5h-344zM320 159h356q163 0 247 65t84 190 q0 252 -348 252h-339v-507z" unicode="B" glyph-name="B"/>
<glyph horiz-adv-x="1405" d="M734 -24q-299 0 -474.5 201.5t-175.5 544.5q0 340 177 542.5t473 202.5q236 0 400.5 -131.5t198.5 -347.5h-182q-35 142 -149 227.5t-268 85.5q-211 0 -338 -158t-127 -421q0 -266 126 -423t340 -157q159 0 268 73t148 205h182q-50 -214 -205 -329t-394 -115z" unicode="C" glyph-name="C"/>
<glyph horiz-adv-x="1399" d="M140 1443h495q321 0 501 -190.5t180 -530.5q0 -341 -179.5 -531.5t-501.5 -190.5h-495v1443zM320 1281v-1119h303q245 0 377 144.5t132 413.5q0 271 -131.5 416t-377.5 145h-303z" unicode="D" glyph-name="D"/>
<glyph horiz-adv-x="1131" d="M1034 162v-162h-894v1443h894v-162h-714v-463h677v-160h-677v-496h714z" unicode="E" glyph-name="E"/>
<glyph horiz-adv-x="1081" d="M320 0h-180v1443h876v-162h-696v-496h639v-160h-639v-625z" unicode="F" glyph-name="F"/>
<glyph horiz-adv-x="1447" d="M1357 597q0 -293 -161.5 -457t-450.5 -164q-302 0 -481.5 204.5t-179.5 548.5q0 338 179 538t482 200q234 0 398.5 -128.5t204.5 -343.5h-189q-45 146 -153.5 226t-260.5 80q-223 0 -349.5 -151.5t-126.5 -419.5q0 -272 128 -430t348 -158q192 0 312 113.5t120 294.5v26 h-407v158h587v-137z" unicode="G" glyph-name="G"/>
<glyph horiz-adv-x="1432" d="M1292 0h-180v657h-792v-657h-180v1443h180v-624h792v624h180v-1443z" unicode="H" glyph-name="H"/>
<glyph horiz-adv-x="460" d="M320 0h-180v1443h180v-1443z" unicode="I" glyph-name="I"/>
<glyph horiz-adv-x="1014" d="M42 339h179q3 -92 66.5 -149.5t161.5 -57.5q119 0 182 69.5t63 201.5v1040h180v-1041q0 -205 -112 -320.5t-312 -115.5q-180 0 -294 104.5t-114 268.5z" unicode="J" glyph-name="J"/>
<glyph horiz-adv-x="1260" d="M320 0h-180v1443h180v-704h10l637 704h227l-593 -639l646 -804h-230l-541 676l-156 -172v-504z" unicode="K" glyph-name="K"/>
<glyph horiz-adv-x="1074" d="M1016 162v-162h-876v1443h180v-1281h696z" unicode="L" glyph-name="L"/>
<glyph horiz-adv-x="1702" d="M1562 0h-168v1112h-7l-460 -1102h-152l-460 1102h-7v-1112h-168v1443h209l498 -1204h8l498 1204h209v-1443z" unicode="M" glyph-name="M"/>
<glyph horiz-adv-x="1432" d="M318 0h-178v1443h175l790 -1133h9v1133h178v-1443h-175l-790 1129h-9v-1129z" unicode="N" glyph-name="N"/>
<glyph horiz-adv-x="1498" d="M749 1467q307 0 486 -201t179 -545t-179 -544.5t-486 -200.5t-486 200.5t-179 544.5t179 545t486 201zM749 1301q-221 0 -350.5 -156.5t-129.5 -423.5q0 -266 129.5 -422.5t350.5 -156.5t350.5 156.5t129.5 422.5q0 267 -129.5 423.5t-350.5 156.5z" unicode="O" glyph-name="O"/>
<glyph horiz-adv-x="1213" d="M140 1443h545q203 0 332.5 -129.5t129.5 -333.5q0 -205 -130 -335t-334 -130h-363v-515h-180v1443zM320 1283v-608h318q154 0 239 80.5t85 224.5t-84.5 223.5t-239.5 79.5h-318z" unicode="P" glyph-name="P"/>
<glyph horiz-adv-x="1498" d="M1343 -163h-202l-134 184q-115 -45 -258 -45q-307 0 -486 200.5t-179 544.5t179 545t486 201t486 -201t179 -545q0 -208 -68 -367t-194 -254zM749 142q81 0 153 23l-180 248h202l123 -168q88 74 135 196t47 280q0 267 -129.5 423.5t-350.5 156.5t-350.5 -156.5 t-129.5 -423.5q0 -266 129.5 -422.5t350.5 -156.5z" unicode="Q" glyph-name="Q"/>
<glyph horiz-adv-x="1237" d="M320 1283v-553h355q139 0 214.5 72t75.5 205q0 130 -79 203t-219 73h-347zM320 571v-571h-180v1443h551q209 0 334.5 -117.5t125.5 -312.5q0 -151 -77 -261t-213 -153l334 -599h-211l-309 571h-355z" unicode="R" glyph-name="R"/>
<glyph horiz-adv-x="1216" d="M71 397h181q13 -117 114.5 -188t256.5 -71q146 0 241.5 69.5t95.5 175.5q0 91 -66.5 150t-212.5 97l-185 48q-200 51 -292 142.5t-92 238.5q0 180 142.5 294t367.5 114q215 0 356 -115.5t147 -296.5h-180q-12 116 -100 183t-229 67q-140 0 -228.5 -66t-88.5 -172 q0 -82 64.5 -134.5t211.5 -90.5l151 -40q224 -56 322 -149t98 -248q0 -198 -145.5 -313.5t-394.5 -115.5q-230 0 -376 115t-159 306z" unicode="S" glyph-name="S"/>
<glyph horiz-adv-x="1210" d="M695 0h-180v1281h-465v162h1110v-162h-465v-1281z" unicode="T" glyph-name="T"/>
<glyph horiz-adv-x="1426" d="M320 1443v-925q0 -167 104.5 -271.5t288.5 -104.5t288.5 104.5t104.5 271.5v925h180v-937q0 -235 -154.5 -382.5t-418.5 -147.5t-418.5 147.5t-154.5 382.5v937h180z" unicode="U" glyph-name="U"/>
<glyph horiz-adv-x="1292" d="M735 0h-178l-532 1443h189l429 -1224h6l429 1224h189z" unicode="V" glyph-name="V"/>
<glyph horiz-adv-x="1892" d="M941 1145l-333 -1145h-170l-393 1443h188l289 -1178h8l325 1178h182l325 -1178h8l289 1178h188l-393 -1443h-170l-333 1145h-10z" unicode="W" glyph-name="W"/>
<glyph horiz-adv-x="1300" d="M45 0l491 723v7l-485 713h217l385 -580h7l390 580h205l-498 -722v-6l487 -715h-216l-383 575h-7l-389 -575h-204z" unicode="X" glyph-name="X"/>
<glyph horiz-adv-x="1254" d="M717 0h-180v621l-512 822h205l394 -648h6l394 648h205l-512 -822v-621z" unicode="Y" glyph-name="Y"/>
<glyph horiz-adv-x="1263" d="M98 0v128l823 1146v7h-795v162h1022v-128l-819 -1146v-7h836v-162h-1067z" unicode="Z" glyph-name="Z"/>
<glyph horiz-adv-x="664" d="M205 1444h452v-136h-284v-1413h296v-135h-464v1684z" unicode="[" glyph-name="bracketleft"/>
<glyph horiz-adv-x="590" d="M444 -329l-444 1773h149l441 -1773h-146z" unicode="\" glyph-name="backslash"/>
<glyph horiz-adv-x="664" d="M459 1444v-1684h-464v135h297v1413h-284v136h451z" unicode="]" glyph-name="bracketright"/>
<glyph horiz-adv-x="896" d="M440 1291l-218 -475h-167l298 627h190l298 -627h-167l-218 475h-16z" unicode="^" glyph-name="asciicircum"/>
<glyph horiz-adv-x="828" d="M882 -235h-936v128h936v-128z" unicode="_" glyph-name="underscore"/>
<glyph horiz-adv-x="1005" d="M705 1250h-148l-261 300h198z" unicode="`" glyph-name="grave"/>
<glyph horiz-adv-x="1062" d="M470 141q132 0 218.5 76.5t86.5 192.5v87l-282 -18q-246 -15 -246 -173q0 -75 60.5 -120t162.5 -45zM433 -10q-164 0 -264 87t-100 230q0 139 104 218.5t300 91.5l302 18v90q0 100 -64 154t-183 54q-94 0 -158.5 -45t-80.5 -121h-167q4 136 121 228.5t287 92.5 q191 0 305 -94.5t114 -253.5v-740h-165v187h-4q-46 -90 -140 -143.5t-207 -53.5z" unicode="a" glyph-name="a"/>
<glyph horiz-adv-x="1173" d="M648 -10q-118 0 -208 49.5t-143 142.5h-4v-182h-165v1506h174v-603h4q51 89 141 137t205 48q204 0 330 -151.5t126 -397.5q0 -247 -126.5 -398t-333.5 -151zM617 933q-141 0 -228.5 -109.5t-87.5 -284.5q0 -176 87.5 -285t228.5 -109q142 0 227.5 107t85.5 287 q0 179 -85.5 286.5t-227.5 107.5z" unicode="b" glyph-name="b"/>
<glyph horiz-adv-x="1060" d="M1009 727h-171q-17 91 -90 148.5t-190 57.5q-142 0 -229 -108t-87 -286q0 -182 87.5 -288t230.5 -106q113 0 185.5 51.5t94.5 148.5h171q-22 -159 -145.5 -257t-306.5 -98q-224 0 -359 148.5t-135 400.5q0 248 135 398.5t357 150.5q191 0 313 -105.5t139 -255.5z" unicode="c" glyph-name="c"/>
<glyph horiz-adv-x="1173" d="M527 -10q-204 0 -333 151.5t-129 397.5q0 245 128 397t330 152q115 0 204.5 -48t139.5 -137h4v603h174v-1506h-166v182h-3q-53 -93 -142.5 -142.5t-206.5 -49.5zM558 933q-142 0 -228.5 -108t-86.5 -286q0 -179 86.5 -286.5t228.5 -107.5q140 0 227 109t87 285t-87 285 t-227 109z" unicode="d" glyph-name="d"/>
<glyph horiz-adv-x="1084" d="M548 935q-127 0 -210.5 -84t-92.5 -221h593q-3 137 -82.5 221t-207.5 84zM834 308h172q-22 -139 -148 -228.5t-299 -89.5q-227 0 -360.5 147t-133.5 398t133 402t353 151q216 0 342 -142.5t126 -386.5v-68h-774v-10q0 -154 87 -246t231 -92q101 0 174.5 44.5t96.5 120.5z " unicode="e" glyph-name="e"/>
<glyph horiz-adv-x="629" d="M175 0v934h-150v144h150v100q0 150 68.5 219t218.5 69q48 0 97 -9v-144q-37 8 -81 8q-68 0 -98 -33.5t-31 -109.5v-100h210v-144h-210v-934h-174z" unicode="f" glyph-name="f"/>
<glyph horiz-adv-x="1163" d="M554 155q142 0 229.5 107.5t87.5 280.5q0 174 -87.5 282t-229.5 108q-141 0 -226 -106.5t-85 -283.5q0 -176 85 -282t226 -106zM560 -406q-175 0 -302 89t-150 227h180q26 -75 102 -120.5t178 -45.5q140 0 221.5 74.5t81.5 197.5v169h-4q-51 -88 -142 -136.5t-204 -48.5 q-205 0 -330.5 149.5t-125.5 393.5q0 247 126 396t334 149q114 0 205.5 -48t145.5 -137h3v175h166v-1056q0 -194 -132 -311t-353 -117z" unicode="g" glyph-name="g"/>
<glyph horiz-adv-x="1141" d="M128 0v1506h174v-603h4q102 185 342 185q176 0 278 -109t102 -291v-688h-174v657q0 131 -66 203.5t-192 72.5q-136 0 -215 -85t-79 -228v-620h-174z" unicode="h" glyph-name="h"/>
<glyph horiz-adv-x="430" d="M128 0v1078h174v-1078h-174zM215 1252q-45 0 -77.5 32.5t-32.5 77.5q0 46 32.5 78t77.5 32q46 0 78 -32t32 -78q0 -45 -32 -77.5t-78 -32.5z" unicode="i" glyph-name="i"/>
<glyph horiz-adv-x="430" d="M302 1078v-1131q0 -164 -79.5 -240.5t-251.5 -76.5h-31v147h27q88 0 124.5 37.5t36.5 129.5v1134h174zM215 1252q-45 0 -77.5 32.5t-32.5 77.5q0 46 32.5 78t77.5 32q46 0 78 -32t32 -78q0 -45 -32 -77.5t-78 -32.5z" unicode="j" glyph-name="j"/>
<glyph horiz-adv-x="1026" d="M302 596l483 482h212l-471 -466l485 -612h-202l-405 505l-102 -96v-409h-174v1506h174v-910z" unicode="k" glyph-name="k"/>
<glyph horiz-adv-x="430" d="M128 0v1506h174v-1506h-174z" unicode="l" glyph-name="l"/>
<glyph horiz-adv-x="1701" d="M118 0v1078h164v-175h4q38 86 119.5 135.5t186.5 49.5q109 0 188 -53t114 -151h4q46 96 136 150t203 54q160 0 255.5 -96t95.5 -256v-736h-174v696q0 112 -59.5 174.5t-167.5 62.5t-177.5 -72t-69.5 -183v-678h-174v717q0 98 -61.5 157t-162.5 59q-108 0 -179 -75.5 t-71 -188.5v-669h-174z" unicode="m" glyph-name="m"/>
<glyph horiz-adv-x="1115" d="M118 0v1078h164v-175h4q103 185 342 185q177 0 275.5 -106t98.5 -291v-691h-174v661q0 272 -252 272q-132 0 -208 -83.5t-76 -223.5v-626h-174z" unicode="n" glyph-name="n"/>
<glyph horiz-adv-x="1124" d="M562 -10q-227 0 -362 149t-135 400t135 400t362 149t362 -149t135 -400t-135 -400t-362 -149zM562 145q151 0 235.5 104.5t84.5 289.5q0 186 -84.5 290t-235.5 104t-235.5 -104.5t-84.5 -289.5t85 -289.5t235 -104.5z" unicode="o" glyph-name="o"/>
<glyph horiz-adv-x="1163" d="M636 1088q207 0 334.5 -151.5t127.5 -397.5t-127 -397.5t-331 -151.5q-114 0 -203.5 48t-140.5 137h-4v-535h-174v1438h165v-175h4q47 84 142 134.5t207 50.5zM604 145q143 0 229.5 107.5t86.5 286.5q0 178 -86.5 286t-229.5 108q-139 0 -226 -109t-87 -285t86.5 -285 t226.5 -109z" unicode="p" glyph-name="p"/>
<glyph horiz-adv-x="1163" d="M525 1088q117 0 208 -48t143 -137h3v175h166v-1438h-174v535h-4q-51 -88 -141.5 -136.5t-204.5 -48.5q-204 0 -330 151.5t-126 397.5q0 247 126.5 398t333.5 151zM554 145q141 0 229 109.5t88 284.5t-88 284.5t-229 109.5t-226 -107.5t-85 -286.5q0 -180 85 -287 t226 -107z" unicode="q" glyph-name="q"/>
<glyph horiz-adv-x="649" d="M118 0v1078h164v-175h4q24 85 95 135t166 50q42 0 72 -6v-171q-28 10 -95 10q-105 0 -168.5 -70t-63.5 -184v-667h-174z" unicode="r" glyph-name="r"/>
<glyph horiz-adv-x="984" d="M100 777q0 136 111.5 223t287.5 87q164 0 275.5 -87.5t116.5 -220.5h-167q-8 76 -70 120t-161 44q-100 0 -161 -43t-61 -114q0 -108 182 -153l164 -41q163 -41 229.5 -105.5t66.5 -182.5q0 -138 -119.5 -226t-306.5 -88q-174 0 -289 86.5t-128 226.5h175 q13 -82 78.5 -125.5t175.5 -43.5t174.5 42.5t64.5 115.5q0 57 -38 90.5t-130 57.5l-189 49q-281 73 -281 288z" unicode="s" glyph-name="s"/>
<glyph horiz-adv-x="634" d="M175 1321h174v-243h210v-144h-210v-647q0 -74 32.5 -109t101.5 -35q45 0 75 5v-147q-38 -9 -112 -9q-146 0 -208.5 66.5t-62.5 221.5v654h-150v144h150v243z" unicode="t" glyph-name="t"/>
<glyph horiz-adv-x="1115" d="M997 1078v-1078h-164v178h-4q-102 -188 -343 -188q-176 0 -274.5 106t-98.5 291v691h174v-661q0 -272 252 -272q132 0 208 83.5t76 223.5v626h174z" unicode="u" glyph-name="u"/>
<glyph horiz-adv-x="1022" d="M997 1078l-398 -1078h-176l-398 1078h182l302 -890h4l303 890h181z" unicode="v" glyph-name="v"/>
<glyph horiz-adv-x="1512" d="M1482 1078l-302 -1078h-176l-246 838h-4l-246 -838h-176l-302 1078h172l219 -881h4l247 881h168l247 -881h4l219 881h172z" unicode="w" glyph-name="w"/>
<glyph horiz-adv-x="991" d="M496 413h-4l-263 -413h-194l369 539l-363 539h194l263 -407h4l260 407h194l-365 -532l360 -546h-194z" unicode="x" glyph-name="x"/>
<glyph horiz-adv-x="1026" d="M210 -391q-39 0 -76 7v147q30 -6 71 -6q75 0 120 40.5t78 137.5l21 64l-399 1079h185l302 -901h4l302 901h183l-422 -1144q-69 -187 -147.5 -256t-221.5 -69z" unicode="y" glyph-name="y"/>
<glyph horiz-adv-x="990" d="M95 0v126l601 805v3h-600v144h796v-129l-597 -802v-3h600v-144h-800z" unicode="z" glyph-name="z"/>
<glyph horiz-adv-x="734" d="M311 601q179 -17 179 -236v-334q0 -118 55 -171t179 -53h45v-141h-60q-194 0 -288.5 87t-94.5 266v289q0 119 -39 165t-139 46v191q100 0 139 46.5t39 166.5v255q0 175 94 259.5t289 84.5h60v-141h-45q-125 0 -179.5 -52.5t-54.5 -172.5v-296q0 -216 -179 -234v-25z" unicode="{" glyph-name="braceleft"/>
<glyph horiz-adv-x="446" d="M296 -326h-146v1769h146v-1769z" unicode="|" glyph-name="bar"/>
<glyph horiz-adv-x="734" d="M423 601v25q-179 18 -179 234v296q0 120 -54.5 172.5t-179.5 52.5h-45v141h60q195 0 289 -84.5t94 -259.5v-255q0 -120 39 -166.5t139 -46.5v-191q-100 0 -139 -46t-39 -165v-289q0 -179 -94.5 -266t-288.5 -87h-60v141h45q124 0 179 53t55 171v334q0 219 179 236z" unicode="}" glyph-name="braceright"/>
<glyph d="M575 636q-54 56 -90 78.5t-70 22.5q-130 0 -141 -179h-160q-1 160 81 252t224 92q122 0 247 -125q52 -55 88 -77.5t70 -22.5q131 0 142 179h159q1 -160 -80.5 -252t-223.5 -92q-122 0 -246 124z" unicode="~" glyph-name="asciitilde"/>
<glyph horiz-adv-x="490" unicode=" " glyph-name="nonbreakingspace"/>
<glyph horiz-adv-x="546" d="M183 -342l12 964h156l12 -964h-180zM273 885q-48 0 -81 33t-33 81q0 49 33 81.5t81 32.5q49 0 81.5 -32.5t32.5 -81.5q0 -48 -32.5 -81t-81.5 -33z" unicode="¡" glyph-name="exclamdown"/>
<glyph d="M1125 538q-17 -148 -128.5 -250t-277.5 -119v-169h-172v171q-199 31 -316 181t-117 373q0 220 117.5 369t315.5 178v171h172v-169q166 -18 280.5 -124.5t125.5 -249.5h-174q-21 104 -105.5 164t-209.5 60q-152 0 -248 -111.5t-96 -287.5q0 -178 96.5 -292t247.5 -114 q274 0 315 219h174z" unicode="¢" glyph-name="cent"/>
<glyph d="M374 154h786v-154h-1062v152q133 30 220.5 129.5t87.5 219.5q0 66 -24 152h-284v144h234q-61 171 -61 263q0 196 137.5 306.5t379.5 110.5q187 0 300 -53v-160q-38 22 -121.5 38t-169.5 16q-161 0 -251.5 -67.5t-90.5 -186.5q0 -97 60 -267h471v-144h-424q21 -84 21 -145 q0 -118 -59.5 -207t-149.5 -143v-4z" unicode="£" glyph-name="sterling"/>
<glyph d="M357 656q0 -109 77.5 -186.5t186.5 -77.5t186 77.5t77 186.5t-77 186.5t-186 77.5t-186.5 -77.5t-77.5 -186.5zM1112 1043l-168 -169q67 -99 67 -218q0 -121 -68 -219l169 -169l-106 -106l-169 169q-97 -66 -216 -66t-219 67l-169 -170l-106 106l170 170q-67 100 -67 218 t67 217l-170 170l106 106l169 -169q100 67 219 67q118 0 217 -67l168 169z" unicode="¤" glyph-name="currency"/>
<glyph d="M987 269h-277v-269h-180v269h-277v136h277v166h-277v136h223l-458 736h205l394 -647h6l393 647h205l-457 -736h223v-136h-277v-166h277v-136z" unicode="¥" glyph-name="yen"/>
<glyph horiz-adv-x="448" d="M297 774h-146v669h146v-669zM297 -326h-146v669h146v-669z" unicode="¦" glyph-name="brokenbar"/>
<glyph horiz-adv-x="988" d="M429 400l83 -18q92 0 155 55t63 136q0 63 -44 106t-126 61l-83 18q-91 0 -155 -56t-64 -135q0 -62 44.5 -105.5t126.5 -61.5zM499 -257q-172 0 -285.5 83t-123.5 216h176q10 -69 77 -111t165 -42q102 0 165.5 44t63.5 114q0 56 -47 94t-151 66l-141 38 q-164 44 -240.5 113.5t-76.5 174.5q0 95 58.5 164t164.5 98v16q-219 85 -219 273q0 140 111 226.5t290 86.5q167 0 274 -78t124 -211h-173q-11 65 -73 104t-156 39q-101 0 -162.5 -43.5t-61.5 -113.5q0 -57 46 -95t149 -66l141 -38q162 -43 237.5 -111t75.5 -169 q0 -103 -71 -182t-183 -101v-16q254 -57 254 -257q0 -139 -114.5 -227.5t-293.5 -88.5z" unicode="§" glyph-name="section"/>
<glyph horiz-adv-x="1004" d="M305 1261q-46 0 -79 33t-33 79t33 79t79 33q47 0 79.5 -32.5t32.5 -79.5q0 -46 -33 -79t-79 -33zM699 1261q-46 0 -79 33t-33 79t33 79t79 33q47 0 79.5 -32.5t32.5 -79.5q0 -46 -33 -79t-79 -33z" unicode="¨" glyph-name="dieresis"/>
<glyph horiz-adv-x="1706" d="M853 -168q-220 0 -401.5 103.5t-286.5 286t-105 404.5q0 223 105 405.5t286.5 285.5t401.5 103q221 0 402.5 -103t286 -285.5t104.5 -405.5q0 -222 -104.5 -404.5t-286 -286t-402.5 -103.5zM853 -28q181 0 330.5 85t235.5 235t86 334q0 185 -86 335t-235.5 234.5 t-330.5 84.5t-330 -84.5t-235.5 -234.5t-86.5 -335q0 -184 86.5 -334t236 -235t329.5 -85zM1231 768h-139q-17 68 -75.5 112t-146.5 44q-116 0 -184.5 -79.5t-68.5 -216.5q0 -139 69 -219.5t184 -80.5q86 0 144.5 39t77.5 112h139q-19 -123 -114.5 -199t-245.5 -76 q-181 0 -288.5 114t-107.5 310q0 192 107.5 306t287.5 114q150 0 246 -79.5t115 -200.5z" unicode="©" glyph-name="copyright"/>
<glyph horiz-adv-x="729" d="M326 828q81 0 134 46t53 117v56l-175 -11q-149 -11 -149 -107q0 -46 37.5 -73.5t99.5 -27.5zM286 712q-109 0 -176.5 59t-67.5 155q0 95 71 149.5t206 62.5l194 11v56q0 61 -39.5 94t-111.5 33q-58 0 -98 -28t-49 -75h-137q3 97 84.5 160t203.5 63q133 0 212.5 -64.5 t79.5 -171.5v-497h-140v120h-3q-30 -59 -92.5 -93t-136.5 -34z" unicode="ª" glyph-name="ordfeminine"/>
<glyph horiz-adv-x="1302" d="M338 572v-14l351 -413h-204l-350 416v8l350 416h204zM816 572v-14l351 -413h-204l-350 416v8l350 416h204z" unicode="«" glyph-name="guillemotleft"/>
<glyph d="M1093 654v-528h-148v380h-799v148h947z" unicode="¬" glyph-name="logicalnot"/>
<glyph horiz-adv-x="1160" d="M580 592q-132 0 -242 62t-174 170.5t-64 237.5q0 197 139.5 333.5t340.5 136.5t340.5 -136t139.5 -334q0 -197 -139.5 -333.5t-340.5 -136.5zM580 692q155 0 262.5 107.5t107.5 262.5t-107.5 262.5t-262.5 107.5t-262.5 -107.5t-107.5 -262.5q0 -154 108 -262t262 -108z M494 846h-95v450h221q69 0 113.5 -39t44.5 -98q0 -54 -28 -89.5t-78 -43.5l129 -180h-119l-109 167h-79v-167zM494 1216v-130h107q35 0 55 18t20 50q0 62 -72 62h-110z" unicode="®" glyph-name="registered"/>
<glyph horiz-adv-x="1000" d="M817 1426v-106h-634v106h634z" unicode="¯" glyph-name="macron"/>
<glyph horiz-adv-x="733" d="M366 824q-119 0 -201.5 83t-82.5 202t82.5 202t201.5 83q118 0 201.5 -83t83.5 -202t-83.5 -202t-201.5 -83zM366 953q66 0 112 46t46 110q0 65 -46 111t-112 46q-63 0 -110 -46t-47 -111q0 -63 47 -109.5t110 -46.5z" unicode="°" glyph-name="degree"/>
<glyph d="M1128 112h-1017v148h1017v-148zM693 662v-291h-147v291h-435v136h435v291h147v-291h435v-136h-435z" unicode="±" glyph-name="plusminus"/>
<glyph horiz-adv-x="617" d="M45 1601q0 100 72.5 162.5t188.5 62.5q112 0 182 -56t70 -145q0 -53 -28 -101t-99 -115l-165 -155v-3h301v-126h-513v108l264 247q47 46 65 75.5t18 59.5q0 39 -28.5 63.5t-73.5 24.5t-75 -29t-30 -73v-3h-149v3z" unicode="²" glyph-name="two.sups"/>
<glyph horiz-adv-x="643" d="M230 1419v113h84q46 0 73.5 24t27.5 64q0 39 -27.5 61.5t-75.5 22.5q-46 0 -75.5 -25.5t-31.5 -67.5h-147q2 98 73.5 156.5t187.5 58.5q112 0 180 -50.5t68 -133.5q0 -61 -38.5 -104.5t-103.5 -54.5v-4q78 -7 123 -51t45 -113q0 -93 -76.5 -149.5t-202.5 -56.5 q-118 0 -191 59t-78 158h154q3 -41 34.5 -65t82.5 -24q49 0 80.5 25t31.5 65q0 43 -30.5 67.5t-83.5 24.5h-84z" unicode="³" glyph-name="three.sups"/>
<glyph horiz-adv-x="1005" d="M447 1250h-148l211 300h198z" unicode="´" glyph-name="acute"/>
<glyph horiz-adv-x="1201" d="M774 -220h-180v795h-20q-202 0 -338 121.5t-136 305.5q0 191 136.5 316t338.5 125h199v-1663zM921 -220v1663h180v-1663h-180z" unicode="¶" glyph-name="paragraph"/>
<glyph horiz-adv-x="520" d="M260 489q-49 0 -82.5 33.5t-33.5 82.5t33.5 82.5t82.5 33.5q50 0 83 -33.5t33 -82.5t-33.5 -82.5t-82.5 -33.5z" unicode="·" glyph-name="periodcentered"/>
<glyph horiz-adv-x="1005" d="M359 -230v74l63 164h109v-8l-52 -142q209 0 209 -150q0 -76 -62 -126t-157 -51q-83 -1 -147 17v98q38 -15 122 -15q120 0 120 73q0 35 -35.5 50.5t-114.5 15.5h-55z" unicode="¸" glyph-name="cedilla"/>
<glyph horiz-adv-x="497" d="M251 1125v545h-3l-178 -122v142l176 120h158v-685h-153z" unicode="¹" glyph-name="one.sups"/>
<glyph horiz-adv-x="768" d="M384 710q-158 0 -250.5 100t-92.5 271t93 271t250 100t250 -100t93 -271t-92.5 -271t-250.5 -100zM384 831q92 0 143.5 66t51.5 184t-51.5 184t-143.5 66q-91 0 -142.5 -66t-51.5 -184t51.5 -184t142.5 -66z" unicode="º" glyph-name="ordmasculine"/>
<glyph horiz-adv-x="1302" d="M486 572l-351 413h204l350 -416v-8l-350 -416h-204l351 413v14zM964 572l-351 413h204l350 -416v-8l-350 -416h-204l351 413v14z" unicode="»" glyph-name="guillemotright"/>
<glyph horiz-adv-x="1462" d="M261 758v545h-3l-178 -122v142l176 120h158v-685h-153zM265 0h-174l1056 1443h172zM1189 0v115h-339v137q78 151 267 433h226v-442h87v-128h-87v-115h-154zM989 241v-3h204v335h-3q-139 -214 -201 -332z" unicode="¼" glyph-name="onequarter"/>
<glyph horiz-adv-x="1462" d="M261 758v545h-3l-178 -122v142l176 120h158v-685h-153zM265 0h-174l1056 1443h172zM908 476q0 100 72.5 162.5t188.5 62.5q112 0 182 -56t70 -145q0 -53 -28 -101t-99 -115l-165 -155v-3h301v-126h-513v108l264 247q47 46 65 75.5t18 59.5q0 39 -28.5 63.5t-73.5 24.5 t-75 -29t-30 -73v-3h-149v3z" unicode="½" glyph-name="onehalf"/>
<glyph horiz-adv-x="1572" d="M230 1052v113h84q46 0 73.5 24t27.5 64q0 39 -27.5 61.5t-75.5 22.5q-46 0 -75.5 -25.5t-31.5 -67.5h-147q2 98 73.5 156.5t187.5 58.5q112 0 180 -50.5t68 -133.5q0 -61 -38.5 -104.5t-103.5 -54.5v-4q78 -7 123 -51t45 -113q0 -93 -76.5 -149.5t-202.5 -56.5 q-118 0 -191 59t-78 158h154q3 -41 34.5 -65t82.5 -24q49 0 80.5 25t31.5 65q0 43 -30.5 67.5t-83.5 24.5h-84zM375 0h-174l1056 1443h172zM1299 0v115h-339v137q78 151 267 433h226v-442h87v-128h-87v-115h-154zM1099 241v-3h204v335h-3q-139 -214 -201 -332z" unicode="¾" glyph-name="threequarters"/>
<glyph horiz-adv-x="1002" d="M946 32q-8 -171 -121 -280t-314 -109q-188 0 -306.5 103t-118.5 261q0 216 209 343q94 56 128 106t34 130v65h175v-92q1 -98 -46.5 -169.5t-152.5 -134.5q-87 -54 -124 -107.5t-37 -131.5q0 -96 67.5 -156.5t178.5 -60.5q112 0 180.5 62.5t76.5 170.5h171zM532 885 q-48 0 -81 33t-33 81q0 49 33 81.5t81 32.5q49 0 81.5 -32.5t32.5 -81.5q0 -48 -32.5 -81t-81.5 -33z" unicode="¿" glyph-name="questiondown"/>
<glyph horiz-adv-x="1292" d="M1078 0l-145 413h-574l-145 -413h-189l532 1443h178l532 -1443h-189zM643 1224l-231 -658h468l-231 658h-6zM572 1550l-281 299h198l231 -299h-148z" unicode="À" glyph-name="Agrave"/>
<glyph horiz-adv-x="1292" d="M1078 0l-145 413h-574l-145 -413h-189l532 1443h178l532 -1443h-189zM643 1224l-231 -658h468l-231 658h-6zM723 1550h-148l231 299h198z" unicode="Á" glyph-name="Aacute"/>
<glyph horiz-adv-x="1292" d="M1078 0l-145 413h-574l-145 -413h-189l532 1443h178l532 -1443h-189zM643 1224l-231 -658h468l-231 658h-6zM575 1849h142l292 -299h-168l-194 201h-2l-194 -201h-168z" unicode="Â" glyph-name="Acircumflex"/>
<glyph horiz-adv-x="1292" d="M1078 0l-145 413h-574l-145 -413h-189l532 1443h178l532 -1443h-189zM643 1224l-231 -658h468l-231 658h-6zM774 1535q-36 0 -67.5 15.5t-54 38t-42.5 45t-42 38t-43 15.5q-33 0 -51 -35.5t-18 -101.5h-114q0 118 47 184t131 66q47 0 87.5 -24t64 -52t51 -52t51.5 -24 q62 0 62 138h114q0 -115 -48 -183t-128 -68z" unicode="Ã" glyph-name="Atilde"/>
<glyph horiz-adv-x="1292" d="M1078 0l-145 413h-574l-145 -413h-189l532 1443h178l532 -1443h-189zM643 1224l-231 -658h468l-231 658h-6zM449 1585q-46 0 -79 33t-33 79t33 79t79 33q47 0 79.5 -32.5t32.5 -79.5q0 -46 -33 -79t-79 -33zM843 1585q-46 0 -79 33t-33 79t33 79t79 33q47 0 79.5 -32.5 t32.5 -79.5q0 -46 -33 -79t-79 -33z" unicode="Ä" glyph-name="Adieresis"/>
<glyph horiz-adv-x="1292" d="M1078 0l-145 413h-574l-145 -413h-189l532 1443h178l532 -1443h-189zM643 1224l-231 -658h468l-231 658h-6zM646 1507q-82 0 -140.5 58.5t-58.5 140.5t58.5 140.5t140.5 58.5t140.5 -58.5t58.5 -140.5t-58.5 -140.5t-140.5 -58.5zM646 1590q48 0 82 34t34 82t-34 82 t-82 34t-82 -34t-34 -82t34 -82t82 -34z" unicode="Å" glyph-name="Aring"/>
<glyph horiz-adv-x="1973" d="M802 1292l-322 -680h482v680h-160zM962 0v459h-555l-217 -459h-185l687 1443h1144v-162h-694v-473h657v-160h-657v-486h694v-162h-874z" unicode="Æ" glyph-name="AE"/>
<glyph horiz-adv-x="1405" d="M1333 988h-182q-35 142 -149 227.5t-268 85.5q-211 0 -338 -158t-127 -421q0 -266 126 -423t340 -157q159 0 268 73t148 205h182q-46 -200 -185 -314t-354 -128l-44 -120q209 0 209 -150q0 -76 -62 -126t-157 -51q-83 -1 -147 17v98q37 -15 122 -15q120 0 120 73 q0 35 -35.5 50.5t-114.5 15.5h-55v74l51 134q-276 18 -436.5 217.5t-160.5 526.5q0 340 177 542.5t473 202.5q236 0 400.5 -131.5t198.5 -347.5z" unicode="Ç" glyph-name="Ccedilla"/>
<glyph horiz-adv-x="1131" d="M1034 162v-162h-894v1443h894v-162h-714v-463h677v-160h-677v-496h714zM513 1550l-281 299h198l231 -299h-148z" unicode="È" glyph-name="Egrave"/>
<glyph horiz-adv-x="1131" d="M1034 162v-162h-894v1443h894v-162h-714v-463h677v-160h-677v-496h714zM664 1550h-148l231 299h198z" unicode="É" glyph-name="Eacute"/>
<glyph horiz-adv-x="1131" d="M1034 162v-162h-894v1443h894v-162h-714v-463h677v-160h-677v-496h714zM516 1849h142l292 -299h-168l-194 201h-2l-194 -201h-168z" unicode="Ê" glyph-name="Ecircumflex"/>
<glyph horiz-adv-x="1131" d="M1034 162v-162h-894v1443h894v-162h-714v-463h677v-160h-677v-496h714zM390 1585q-46 0 -79 33t-33 79t33 79t79 33t79 -32.5t33 -79.5q0 -46 -33 -79t-79 -33zM784 1585q-46 0 -79 33t-33 79t33 79t79 33t79 -32.5t33 -79.5q0 -46 -33 -79t-79 -33z" unicode="Ë" glyph-name="Edieresis"/>
<glyph horiz-adv-x="460" d="M320 0h-180v1443h180v-1443zM156 1550l-281 299h198l231 -299h-148z" unicode="Ì" glyph-name="Igrave"/>
<glyph horiz-adv-x="460" d="M320 0h-180v1443h180v-1443zM307 1550h-148l231 299h198z" unicode="Í" glyph-name="Iacute"/>
<glyph horiz-adv-x="460" d="M320 0h-180v1443h180v-1443zM159 1849h142l292 -299h-168l-194 201h-2l-194 -201h-168z" unicode="Î" glyph-name="Icircumflex"/>
<glyph horiz-adv-x="460" d="M320 0h-180v1443h180v-1443zM33 1585q-46 0 -79 33t-33 79t33 79t79 33q47 0 79.5 -32.5t32.5 -79.5q0 -46 -33 -79t-79 -33zM427 1585q-46 0 -79 33t-33 79t33 79t79 33q47 0 79.5 -32.5t32.5 -79.5q0 -46 -33 -79t-79 -33z" unicode="Ï" glyph-name="Idieresis"/>
<glyph horiz-adv-x="1412" d="M333 162h303q245 0 377 144.5t132 413.5q0 271 -131.5 416t-377.5 145h-303v-455h277v-163h-277v-501zM153 1443h495q321 0 501 -190.5t180 -530.5q0 -341 -179.5 -531.5t-501.5 -190.5h-495v663h-129v163h129v617z" unicode="Ð" glyph-name="Eth"/>
<glyph horiz-adv-x="1432" d="M318 0h-178v1443h175l790 -1133h9v1133h178v-1443h-175l-790 1129h-9v-1129zM844 1535q-36 0 -67.5 15.5t-54 38t-42.5 45t-42 38t-43 15.5q-33 0 -51 -35.5t-18 -101.5h-114q0 118 47 184t131 66q47 0 87.5 -24t64 -52t51 -52t51.5 -24q62 0 62 138h114q0 -115 -48 -183 t-128 -68z" unicode="Ñ" glyph-name="Ntilde"/>
<glyph horiz-adv-x="1498" d="M749 1467q307 0 486 -201t179 -545t-179 -544.5t-486 -200.5t-486 200.5t-179 544.5t179 545t486 201zM749 1301q-221 0 -350.5 -156.5t-129.5 -423.5q0 -266 129.5 -422.5t350.5 -156.5t350.5 156.5t129.5 422.5q0 267 -129.5 423.5t-350.5 156.5zM675 1550l-281 299 h198l231 -299h-148z" unicode="Ò" glyph-name="Ograve"/>
<glyph horiz-adv-x="1498" d="M749 1467q307 0 486 -201t179 -545t-179 -544.5t-486 -200.5t-486 200.5t-179 544.5t179 545t486 201zM749 1301q-221 0 -350.5 -156.5t-129.5 -423.5q0 -266 129.5 -422.5t350.5 -156.5t350.5 156.5t129.5 422.5q0 267 -129.5 423.5t-350.5 156.5zM826 1550h-148 l231 299h198z" unicode="Ó" glyph-name="Oacute"/>
<glyph horiz-adv-x="1498" d="M749 1467q307 0 486 -201t179 -545t-179 -544.5t-486 -200.5t-486 200.5t-179 544.5t179 545t486 201zM749 1301q-221 0 -350.5 -156.5t-129.5 -423.5q0 -266 129.5 -422.5t350.5 -156.5t350.5 156.5t129.5 422.5q0 267 -129.5 423.5t-350.5 156.5zM678 1849h142 l292 -299h-168l-194 201h-2l-194 -201h-168z" unicode="Ô" glyph-name="Ocircumflex"/>
<glyph horiz-adv-x="1498" d="M749 1467q307 0 486 -201t179 -545t-179 -544.5t-486 -200.5t-486 200.5t-179 544.5t179 545t486 201zM749 1301q-221 0 -350.5 -156.5t-129.5 -423.5q0 -266 129.5 -422.5t350.5 -156.5t350.5 156.5t129.5 422.5q0 267 -129.5 423.5t-350.5 156.5zM877 1535 q-36 0 -67.5 15.5t-54 38t-42.5 45t-42 38t-43 15.5q-33 0 -51 -35.5t-18 -101.5h-114q0 118 47 184t131 66q47 0 87.5 -24t64 -52t51 -52t51.5 -24q62 0 62 138h114q0 -115 -48 -183t-128 -68z" unicode="Õ" glyph-name="Otilde"/>
<glyph horiz-adv-x="1498" d="M749 1467q307 0 486 -201t179 -545t-179 -544.5t-486 -200.5t-486 200.5t-179 544.5t179 545t486 201zM749 1301q-221 0 -350.5 -156.5t-129.5 -423.5q0 -266 129.5 -422.5t350.5 -156.5t350.5 156.5t129.5 422.5q0 267 -129.5 423.5t-350.5 156.5zM552 1585 q-46 0 -79 33t-33 79t33 79t79 33t79 -32.5t33 -79.5q0 -46 -33 -79t-79 -33zM946 1585q-46 0 -79 33t-33 79t33 79t79 33t79 -32.5t33 -79.5q0 -46 -33 -79t-79 -33z" unicode="Ö" glyph-name="Odieresis"/>
<glyph d="M620 475l-308 -307l-104 104l307 308l-307 308l104 104l308 -307l307 307l104 -104l-306 -308l306 -308l-104 -104z" unicode="×" glyph-name="multiply"/>
<glyph horiz-adv-x="1498" d="M1135 1096l-665 -866q116 -88 279 -88q221 0 350.5 156.5t129.5 422.5q0 227 -94 375zM382 319l673 872q-122 110 -306 110q-221 0 -350.5 -156.5t-129.5 -423.5q0 -249 113 -402zM1382 1419l-132 -172q164 -198 164 -526q0 -344 -179 -544.5t-486 -200.5 q-226 0 -387 113l-104 -136l-100 76l110 142q-184 203 -184 550q0 344 179 545t486 201q249 0 415 -134l120 155z" unicode="Ø" glyph-name="Oslash"/>
<glyph horiz-adv-x="1426" d="M320 1443v-925q0 -167 104.5 -271.5t288.5 -104.5t288.5 104.5t104.5 271.5v925h180v-937q0 -235 -154.5 -382.5t-418.5 -147.5t-418.5 147.5t-154.5 382.5v937h180zM639 1550l-281 299h198l231 -299h-148z" unicode="Ù" glyph-name="Ugrave"/>
<glyph horiz-adv-x="1426" d="M320 1443v-925q0 -167 104.5 -271.5t288.5 -104.5t288.5 104.5t104.5 271.5v925h180v-937q0 -235 -154.5 -382.5t-418.5 -147.5t-418.5 147.5t-154.5 382.5v937h180zM790 1550h-148l231 299h198z" unicode="Ú" glyph-name="Uacute"/>
<glyph horiz-adv-x="1426" d="M320 1443v-925q0 -167 104.5 -271.5t288.5 -104.5t288.5 104.5t104.5 271.5v925h180v-937q0 -235 -154.5 -382.5t-418.5 -147.5t-418.5 147.5t-154.5 382.5v937h180zM642 1849h142l292 -299h-168l-194 201h-2l-194 -201h-168z" unicode="Û" glyph-name="Ucircumflex"/>
<glyph horiz-adv-x="1426" d="M320 1443v-925q0 -167 104.5 -271.5t288.5 -104.5t288.5 104.5t104.5 271.5v925h180v-937q0 -235 -154.5 -382.5t-418.5 -147.5t-418.5 147.5t-154.5 382.5v937h180zM516 1585q-46 0 -79 33t-33 79t33 79t79 33t79 -32.5t33 -79.5q0 -46 -33 -79t-79 -33zM910 1585 q-46 0 -79 33t-33 79t33 79t79 33t79 -32.5t33 -79.5q0 -46 -33 -79t-79 -33z" unicode="Ü" glyph-name="Udieresis"/>
<glyph horiz-adv-x="1254" d="M717 0h-180v621l-512 822h205l394 -648h6l394 648h205l-512 -822v-621zM704 1550h-148l231 299h198z" unicode="Ý" glyph-name="Yacute"/>
<glyph horiz-adv-x="1232" d="M160 1443h180v-266h373q83 0 159 -28t134.5 -80t93.5 -131.5t35 -175.5t-35 -176t-94.5 -132t-135.5 -80.5t-159 -28.5h-371v-345h-180v1443zM340 1017v-512h322q130 0 209 66t79 191t-79 190t-209 65h-322z" unicode="Þ" glyph-name="Thorn"/>
<glyph horiz-adv-x="1238" d="M353 0h-171v1101q0 179 114.5 287t304.5 108q183 0 299 -105t116 -270q0 -127 -61.5 -220t-167.5 -126v-4q160 -22 248 -119.5t88 -250.5q0 -188 -124.5 -301.5t-330.5 -113.5q-83 0 -144 13v153q54 -14 132 -14q135 0 215.5 72t80.5 193q0 130 -90 202.5t-250 72.5h-61 v170h51q116 0 180.5 70t64.5 194q0 103 -67.5 167.5t-175.5 64.5q-118 0 -184.5 -69t-66.5 -191v-1084z" unicode="ß" glyph-name="germandbls"/>
<glyph horiz-adv-x="1062" d="M470 141q132 0 218.5 76.5t86.5 192.5v87l-282 -18q-246 -15 -246 -173q0 -75 60.5 -120t162.5 -45zM433 -10q-164 0 -264 87t-100 230q0 139 104 218.5t300 91.5l302 18v90q0 100 -64 154t-183 54q-94 0 -158.5 -45t-80.5 -121h-167q4 136 121 228.5t287 92.5 q191 0 305 -94.5t114 -253.5v-740h-165v187h-4q-46 -90 -140 -143.5t-207 -53.5zM591 1250h-148l-261 300h198z" unicode="à" glyph-name="agrave"/>
<glyph horiz-adv-x="1062" d="M470 141q132 0 218.5 76.5t86.5 192.5v87l-282 -18q-246 -15 -246 -173q0 -75 60.5 -120t162.5 -45zM433 -10q-164 0 -264 87t-100 230q0 139 104 218.5t300 91.5l302 18v90q0 100 -64 154t-183 54q-94 0 -158.5 -45t-80.5 -121h-167q4 136 121 228.5t287 92.5 q191 0 305 -94.5t114 -253.5v-740h-165v187h-4q-46 -90 -140 -143.5t-207 -53.5zM600 1250h-148l211 300h198z" unicode="á" glyph-name="aacute"/>
<glyph horiz-adv-x="1062" d="M470 141q132 0 218.5 76.5t86.5 192.5v87l-282 -18q-246 -15 -246 -173q0 -75 60.5 -120t162.5 -45zM433 -10q-164 0 -264 87t-100 230q0 139 104 218.5t300 91.5l302 18v90q0 100 -64 154t-183 54q-94 0 -158.5 -45t-80.5 -121h-167q4 136 121 228.5t287 92.5 q191 0 305 -94.5t114 -253.5v-740h-165v187h-4q-46 -90 -140 -143.5t-207 -53.5zM588 1550l277 -300h-163l-173 197h-6l-173 -197h-163l277 300h124z" unicode="â" glyph-name="acircumflex"/>
<glyph horiz-adv-x="1062" d="M470 141q132 0 218.5 76.5t86.5 192.5v87l-282 -18q-246 -15 -246 -173q0 -75 60.5 -120t162.5 -45zM433 -10q-164 0 -264 87t-100 230q0 139 104 218.5t300 91.5l302 18v90q0 100 -64 154t-183 54q-94 0 -158.5 -45t-80.5 -121h-167q4 136 121 228.5t287 92.5 q191 0 305 -94.5t114 -253.5v-740h-165v187h-4q-46 -90 -140 -143.5t-207 -53.5zM658 1258q-36 0 -67.5 15.5t-54 38t-42.5 45t-42 38t-43 15.5q-33 0 -51 -35.5t-18 -101.5h-114q0 118 47 184t131 66q38 0 71.5 -15.5t56.5 -38t43.5 -45t41.5 -38t41 -15.5q62 0 62 138h114 q0 -115 -48 -183t-128 -68z" unicode="ã" glyph-name="atilde"/>
<glyph horiz-adv-x="1062" d="M470 141q132 0 218.5 76.5t86.5 192.5v87l-282 -18q-246 -15 -246 -173q0 -75 60.5 -120t162.5 -45zM433 -10q-164 0 -264 87t-100 230q0 139 104 218.5t300 91.5l302 18v90q0 100 -64 154t-183 54q-94 0 -158.5 -45t-80.5 -121h-167q4 136 121 228.5t287 92.5 q191 0 305 -94.5t114 -253.5v-740h-165v187h-4q-46 -90 -140 -143.5t-207 -53.5zM329 1261q-46 0 -79 33t-33 79t33 79t79 33q47 0 79.5 -32.5t32.5 -79.5q0 -46 -33 -79t-79 -33zM723 1261q-46 0 -79 33t-33 79t33 79t79 33q47 0 79.5 -32.5t32.5 -79.5q0 -46 -33 -79 t-79 -33z" unicode="ä" glyph-name="adieresis"/>
<glyph horiz-adv-x="1062" d="M470 141q132 0 218.5 76.5t86.5 192.5v87l-282 -18q-246 -15 -246 -173q0 -75 60.5 -120t162.5 -45zM433 -10q-164 0 -264 87t-100 230q0 139 104 218.5t300 91.5l302 18v90q0 100 -64 154t-183 54q-94 0 -158.5 -45t-80.5 -121h-167q4 136 121 228.5t287 92.5 q191 0 305 -94.5t114 -253.5v-740h-165v187h-4q-46 -90 -140 -143.5t-207 -53.5zM526 1184q-82 0 -140.5 58.5t-58.5 140.5t58.5 140.5t140.5 58.5t140.5 -58.5t58.5 -140.5t-58.5 -140.5t-140.5 -58.5zM526 1267q48 0 82 34t34 82t-34 82t-82 34t-82 -34t-34 -82t34 -82 t82 -34z" unicode="å" glyph-name="aring"/>
<glyph horiz-adv-x="1769" d="M1260 -10q-133 0 -233.5 58t-153.5 165h-10q-134 -223 -406 -223q-178 0 -283 85t-105 228q0 140 104.5 220.5t297.5 90.5l303 15v77q0 100 -70.5 163.5t-182.5 63.5q-105 0 -168.5 -44.5t-70.5 -121.5h-171q9 141 120 231t284 90q135 0 234 -56t138 -157h9 q55 104 148.5 158.5t217.5 54.5q204 0 323 -142.5t119 -386.5v-67h-756v-11q0 -155 85.5 -246.5t229.5 -91.5q97 0 164.5 43.5t91.5 121.5h172q-23 -141 -143 -229.5t-288 -88.5zM1248 935q-127 0 -209 -83.5t-91 -221.5h575q-3 141 -77 223t-198 82zM461 141 q132 0 222.5 77.5t90.5 191.5v81l-285 -15q-117 -6 -179.5 -50t-62.5 -120t58 -120.5t156 -44.5z" unicode="æ" glyph-name="ae"/>
<glyph horiz-adv-x="1060" d="M840 345h171q-20 -144 -124 -239t-262 -112l-50 -136q209 0 209 -150q0 -76 -62 -126t-157 -51q-83 -1 -147 17v98q38 -15 122 -15q120 0 120 73q0 35 -35.5 50.5t-114.5 15.5h-55v74l57 148q-204 16 -325.5 162t-121.5 385q0 248 135 398.5t357 150.5q191 0 313 -105.5 t139 -255.5h-171q-17 91 -90 148.5t-190 57.5q-142 0 -229 -108t-87 -286q0 -182 87.5 -288t230.5 -106q113 0 185.5 51.5t94.5 148.5z" unicode="ç" glyph-name="ccedilla"/>
<glyph horiz-adv-x="1084" d="M548 935q-127 0 -210.5 -84t-92.5 -221h593q-3 137 -82.5 221t-207.5 84zM834 308h172q-22 -139 -148 -228.5t-299 -89.5q-227 0 -360.5 147t-133.5 398t133 402t353 151q216 0 342 -142.5t126 -386.5v-68h-774v-10q0 -154 87 -246t231 -92q101 0 174.5 44.5t96.5 120.5z M616 1250h-148l-261 300h198z" unicode="è" glyph-name="egrave"/>
<glyph horiz-adv-x="1084" d="M548 935q-127 0 -210.5 -84t-92.5 -221h593q-3 137 -82.5 221t-207.5 84zM834 308h172q-22 -139 -148 -228.5t-299 -89.5q-227 0 -360.5 147t-133.5 398t133 402t353 151q216 0 342 -142.5t126 -386.5v-68h-774v-10q0 -154 87 -246t231 -92q101 0 174.5 44.5t96.5 120.5z M625 1250h-148l211 300h198z" unicode="é" glyph-name="eacute"/>
<glyph horiz-adv-x="1084" d="M548 935q-127 0 -210.5 -84t-92.5 -221h593q-3 137 -82.5 221t-207.5 84zM834 308h172q-22 -139 -148 -228.5t-299 -89.5q-227 0 -360.5 147t-133.5 398t133 402t353 151q216 0 342 -142.5t126 -386.5v-68h-774v-10q0 -154 87 -246t231 -92q101 0 174.5 44.5t96.5 120.5z M613 1550l277 -300h-163l-173 197h-6l-173 -197h-163l277 300h124z" unicode="ê" glyph-name="ecircumflex"/>
<glyph horiz-adv-x="1084" d="M548 935q-127 0 -210.5 -84t-92.5 -221h593q-3 137 -82.5 221t-207.5 84zM834 308h172q-22 -139 -148 -228.5t-299 -89.5q-227 0 -360.5 147t-133.5 398t133 402t353 151q216 0 342 -142.5t126 -386.5v-68h-774v-10q0 -154 87 -246t231 -92q101 0 174.5 44.5t96.5 120.5z M354 1261q-46 0 -79 33t-33 79t33 79t79 33t79 -32.5t33 -79.5q0 -46 -33 -79t-79 -33zM748 1261q-46 0 -79 33t-33 79t33 79t79 33t79 -32.5t33 -79.5q0 -46 -33 -79t-79 -33z" unicode="ë" glyph-name="edieresis"/>
<glyph horiz-adv-x="430" d="M128 0v1078h174v-1078h-174zM280 1250h-148l-261 300h198z" unicode="ì" glyph-name="igrave"/>
<glyph horiz-adv-x="430" d="M128 0v1078h174v-1078h-174zM289 1250h-148l211 300h198z" unicode="í" glyph-name="iacute"/>
<glyph horiz-adv-x="430" d="M128 0v1078h174v-1078h-174zM277 1550l277 -300h-163l-173 197h-6l-173 -197h-163l277 300h124z" unicode="î" glyph-name="icircumflex"/>
<glyph horiz-adv-x="430" d="M128 0v1078h174v-1078h-174zM18 1261q-46 0 -79 33t-33 79t33 79t79 33t79 -32.5t33 -79.5q0 -46 -33 -79t-79 -33zM412 1261q-46 0 -79 33t-33 79t33 79t79 33t79 -32.5t33 -79.5q0 -46 -33 -79t-79 -33z" unicode="ï" glyph-name="idieresis"/>
<glyph horiz-adv-x="1140" d="M577 -19q-229 0 -361 144t-132 394q0 245 128 391.5t343 146.5q92 0 179 -49t121 -120h15q-22 85 -73 182.5t-109 168.5l-278 -90l-35 112l231 75q-62 73 -200 190h206q77 -65 145 -141l250 81l35 -112l-203 -64q221 -306 221 -719q0 -273 -130 -431.5t-353 -158.5z M577 902q-144 0 -229.5 -104t-85.5 -279t85.5 -279t229.5 -104q145 0 231 104t86 279q0 173 -87 278t-230 105z" unicode="ð" glyph-name="eth"/>
<glyph horiz-adv-x="1115" d="M118 0v1078h164v-175h4q103 185 342 185q177 0 275.5 -106t98.5 -291v-691h-174v661q0 272 -252 272q-132 0 -208 -83.5t-76 -223.5v-626h-174zM692 1258q-36 0 -67.5 15.5t-54 38t-42.5 45t-42 38t-43 15.5q-33 0 -51 -35.5t-18 -101.5h-114q0 118 47 184t131 66 q38 0 71.5 -15.5t56.5 -38t43.5 -45t41.5 -38t41 -15.5q62 0 62 138h114q0 -115 -48 -183t-128 -68z" unicode="ñ" glyph-name="ntilde"/>
<glyph horiz-adv-x="1124" d="M562 -10q-227 0 -362 149t-135 400t135 400t362 149t362 -149t135 -400t-135 -400t-362 -149zM562 145q151 0 235.5 104.5t84.5 289.5q0 186 -84.5 290t-235.5 104t-235.5 -104.5t-84.5 -289.5t85 -289.5t235 -104.5zM627 1250h-148l-261 300h198z" unicode="ò" glyph-name="ograve"/>
<glyph horiz-adv-x="1124" d="M562 -10q-227 0 -362 149t-135 400t135 400t362 149t362 -149t135 -400t-135 -400t-362 -149zM562 145q151 0 235.5 104.5t84.5 289.5q0 186 -84.5 290t-235.5 104t-235.5 -104.5t-84.5 -289.5t85 -289.5t235 -104.5zM636 1250h-148l211 300h198z" unicode="ó" glyph-name="oacute"/>
<glyph horiz-adv-x="1124" d="M562 -10q-227 0 -362 149t-135 400t135 400t362 149t362 -149t135 -400t-135 -400t-362 -149zM562 145q151 0 235.5 104.5t84.5 289.5q0 186 -84.5 290t-235.5 104t-235.5 -104.5t-84.5 -289.5t85 -289.5t235 -104.5zM624 1550l277 -300h-163l-173 197h-6l-173 -197h-163 l277 300h124z" unicode="ô" glyph-name="ocircumflex"/>
<glyph horiz-adv-x="1124" d="M562 -10q-227 0 -362 149t-135 400t135 400t362 149t362 -149t135 -400t-135 -400t-362 -149zM562 145q151 0 235.5 104.5t84.5 289.5q0 186 -84.5 290t-235.5 104t-235.5 -104.5t-84.5 -289.5t85 -289.5t235 -104.5zM694 1258q-36 0 -67.5 15.5t-54 38t-42.5 45t-42 38 t-43 15.5q-33 0 -51 -35.5t-18 -101.5h-114q0 118 47 184t131 66q38 0 71.5 -15.5t56.5 -38t43.5 -45t41.5 -38t41 -15.5q62 0 62 138h114q0 -115 -48 -183t-128 -68z" unicode="õ" glyph-name="otilde"/>
<glyph horiz-adv-x="1124" d="M562 -10q-227 0 -362 149t-135 400t135 400t362 149t362 -149t135 -400t-135 -400t-362 -149zM562 145q151 0 235.5 104.5t84.5 289.5q0 186 -84.5 290t-235.5 104t-235.5 -104.5t-84.5 -289.5t85 -289.5t235 -104.5zM365 1261q-46 0 -79 33t-33 79t33 79t79 33 q47 0 79.5 -32.5t32.5 -79.5q0 -46 -33 -79t-79 -33zM759 1261q-46 0 -79 33t-33 79t33 79t79 33q47 0 79.5 -32.5t32.5 -79.5q0 -46 -33 -79t-79 -33z" unicode="ö" glyph-name="odieresis"/>
<glyph d="M620 802q-54 0 -89.5 35t-35.5 90q0 54 35.5 89.5t89.5 35.5q53 0 89 -35.5t36 -89.5t-35.5 -89.5t-89.5 -35.5zM620 88q-54 0 -89.5 35t-35.5 90q0 54 35.5 89.5t89.5 35.5q53 0 89 -35.5t36 -89.5t-35.5 -89.5t-89.5 -35.5zM1128 496h-1017v148h1017v-148z" unicode="÷" glyph-name="divide"/>
<glyph horiz-adv-x="1124" d="M817 802l-417 -616q68 -41 162 -41q151 0 235.5 104.5t84.5 289.5q0 161 -65 263zM309 273l422 615q-71 45 -169 45q-151 0 -235.5 -104.5t-84.5 -289.5q0 -162 67 -266zM988 1054l-72 -106q143 -151 143 -409q0 -251 -135 -400t-362 -149q-143 0 -253 62l-61 -89 l-104 69l66 96q-145 150 -145 411q0 251 135 400t362 149q148 0 260 -66l66 96z" unicode="ø" glyph-name="oslash"/>
<glyph horiz-adv-x="1115" d="M997 1078v-1078h-164v178h-4q-102 -188 -343 -188q-176 0 -274.5 106t-98.5 291v691h174v-661q0 -272 252 -272q132 0 208 83.5t76 223.5v626h174zM620 1250h-148l-261 300h198z" unicode="ù" glyph-name="ugrave"/>
<glyph horiz-adv-x="1115" d="M997 1078v-1078h-164v178h-4q-102 -188 -343 -188q-176 0 -274.5 106t-98.5 291v691h174v-661q0 -272 252 -272q132 0 208 83.5t76 223.5v626h174zM629 1250h-148l211 300h198z" unicode="ú" glyph-name="uacute"/>
<glyph horiz-adv-x="1115" d="M997 1078v-1078h-164v178h-4q-102 -188 -343 -188q-176 0 -274.5 106t-98.5 291v691h174v-661q0 -272 252 -272q132 0 208 83.5t76 223.5v626h174zM617 1550l277 -300h-163l-173 197h-6l-173 -197h-163l277 300h124z" unicode="û" glyph-name="ucircumflex"/>
<glyph horiz-adv-x="1115" d="M997 1078v-1078h-164v178h-4q-102 -188 -343 -188q-176 0 -274.5 106t-98.5 291v691h174v-661q0 -272 252 -272q132 0 208 83.5t76 223.5v626h174zM358 1261q-46 0 -79 33t-33 79t33 79t79 33t79 -32.5t33 -79.5q0 -46 -33 -79t-79 -33zM752 1261q-46 0 -79 33t-33 79 t33 79t79 33t79 -32.5t33 -79.5q0 -46 -33 -79t-79 -33z" unicode="ü" glyph-name="udieresis"/>
<glyph horiz-adv-x="1026" d="M210 -391q-39 0 -76 7v147q30 -6 71 -6q75 0 120 40.5t78 137.5l21 64l-399 1079h185l302 -901h4l302 901h183l-422 -1144q-69 -187 -147.5 -256t-221.5 -69zM588 1250h-148l211 300h198z" unicode="ý" glyph-name="yacute"/>
<glyph horiz-adv-x="1171" d="M653 1097q206 0 329.5 -152t123.5 -406q0 -253 -124 -405.5t-329 -152.5q-116 0 -205.5 48t-132.5 133h-15v-522h-172v1866h164v-608h16q52 93 143.5 146t201.5 53zM612 136q148 0 232 107t84 296t-83.5 296t-231.5 107q-146 0 -232 -108.5t-86 -294.5q0 -185 85.5 -294 t231.5 -109z" unicode="þ" glyph-name="thorn"/>
</font>
</defs>
</svg>
